The Who - The Who Sell Out (1967) LP Rip 24-96 FLAC
by muziekdoos - February 04, 2021 at 05:54 PM
#1
[Image: eS0j6kg.jpg]

The Who - The Who Sell Out (1967) LP Rip 24-96 FLAC

Tracklist 

DR Peak RMS Duration Track
--------------------------------------------------------------------------------
DR10 -4.18 dB -17.21 dB 3:42 01-Armenia City In The Sky
DR11 -4.97 dB -20.01 dB 1:10 02-Heinz Baked Beans
DR10 -4.40 dB -18.51 dB 2:07 03-Mary Anne With The Shaky Hand
DR12 -3.42 dB -19.74 dB 3:02 04-Odorono
DR10 -4.28 dB -18.93 dB 2:45 05-Tattoo
DR10 -5.60 dB -18.97 dB 3:17 06-Our Love Was
DR11 -1.00 dB -16.10 dB 4:24 07-I Can See For Miles
DR12 -2.23 dB -15.96 dB 3:34 08-Can't Reach You
DR11 -3.32 dB -17.76 dB 0:57 09-Medac
DR10 -3.67 dB -16.07 dB 2:41 10-Relax
DR10 -2.79 dB -15.98 dB 3:08 11-Silas Stingy
DR11 -5.51 dB -20.69 dB 3:06 12-Sunrise
DR10 -1.00 dB -15.31 dB 5:47 13-Rael (1 And 2)

Number of tracks: 13
Official DR value: DR11

Samplerate: 96000 Hz
Channels: 2
Bits per sample: 24
Bitrate: 2924 kbps
Codec: FLAC


DOWNLOAD ALBUM
This forum account is currently banned. Ban Length: Permanent (N/A).
Ban Reason: Has been banned countless times for spamming music threads.
Reply

Possibly Related Threads…
Thread Author Replies Views Last Post
The Doobie Brothers - The Captain and Me (1973) LP Rip FLAC muziekdoos 0 118 February 04, 2021 at 05:48 PM
Last Post: muziekdoos
The B-52's - The B-52's (1979) LP Rip 24-96 FLAC muziekdoos 0 119 February 04, 2021 at 05:41 PM
Last Post: muziekdoos
Styx - The Grand Illusion (1973) LP Rip 24-96 FLAC muziekdoos 0 116 February 04, 2021 at 05:35 PM
Last Post: muziekdoos

 Users browsing this thread: 1 Guest(s)