The Who - Quadrophenia (1973) LP Rip 24-96 FLAC
by muziekdoos - January 18, 2021 at 08:20 PM
#1
[Image: k0jPftQ.jpg]

The Who - Quadrophenia (1973)  LPRip 24-96 FLAC

Tracklist

DR14 -1.91 dB -23.87 dB 2:04 01-I Am The Sea
DR11 -1.18 dB -15.01 dB 3:25 02-The Real Me
DR13 -0.70 dB -16.78 dB 6:18 03-Quadrophenia
DR11 -2.00 dB -16.82 dB 3:46 04-Cut My Hair
DR13 -0.70 dB -15.92 dB 5:14 05-The Punk And The Godfather
DR13 -1.53 dB -18.04 dB 2:41 06-I'm One
DR12 -2.10 dB -16.35 dB 4:30 07-The Dirty Jobs
DR12 -2.97 dB -18.45 dB 2:36 08-Helpless Dancer
DR13 -1.69 dB -17.41 dB 3:46 09-Is It In My Head
DR12 -1.35 dB -16.45 dB 6:18 10-I've Had Enough
DR13 -0.71 dB -15.80 dB 5:03 11-5:15
DR13 -0.70 dB -16.52 dB 5:08 12-Sea And Sand
DR14 -0.83 dB -17.73 dB 5:28 13-Drowned
DR12 -2.80 dB -16.84 dB 5:01 14-Bell Boy
DR14 -0.70 dB -17.75 dB 8:42 15-Doctor Jimmy
DR14 -3.15 dB -19.71 dB 6:39 16-The Rock
DR12 -4.83 dB -18.95 dB 5:51 17-Love, Reign O'er Me



DOWNLOAD
This forum account is currently banned. Ban Length: Permanent (N/A).
Ban Reason: Has been banned countless times for spamming music threads.
Reply
#2
If You like this kind of music go the link below and you'll got a lot more LP's
This forum account is currently banned. Ban Length: Permanent (N/A).
Ban Reason: Has been banned countless times for spamming music threads.
Reply
#3
Proper classic album, a must have
Reply

Possibly Related Threads…
Thread Author Replies Views Last Post
The Who - The Who Sell Out (1967) LP Rip 24-96 FLAC muziekdoos 0 106 February 04, 2021 at 05:54 PM
Last Post: muziekdoos
The Doobie Brothers - The Captain and Me (1973) LP Rip FLAC muziekdoos 0 107 February 04, 2021 at 05:48 PM
Last Post: muziekdoos
The B-52's - The B-52's (1979) LP Rip 24-96 FLAC muziekdoos 0 109 February 04, 2021 at 05:41 PM
Last Post: muziekdoos

 Users browsing this thread: 1 Guest(s)