Judas Priest - British Steel (1980)
by muziekdoos - January 18, 2021 at 04:40 PM
#1
[Image: jaDpfrw.jpg]

Judas Priest - British Steel (1980
LP Rip 24-96 FLAC

Tracklist 

DR Peak RMS Duration Track
--------------------------------------------------------------------------------
DR13 -0.70 dB -16.12 dB 2:36 01-Breaking The Law
DR13 -0.70 dB -15.44 dB 4:08 02-Rapid Fire
DR15 -0.83 dB -18.01 dB 4:00 03-Metal Gods
DR13 -0.70 dB -15.50 dB 3:58 04-Grinder
DR14 -1.28 dB -18.67 dB 3:33 05-United
DR14 -0.70 dB -16.72 dB 3:32 06-Living After Midnight
DR14 -0.70 dB -16.79 dB 5:05 07-You Don't Have To Be Old To Be Wise
DR14 -0.70 dB -17.49 dB 4:45 08-The Rage
DR13 -0.76 dB -17.43 dB 4:30 09-Steeler

DOWNLOAD ALBUM HERE

This forum account is currently banned. Ban Length: Permanent (N/A).
Ban Reason: Has been banned countless times for spamming music threads.
Reply
#2
[quote="muziekdoos" pid='3336179' dateline='1610984452']
[Image: jaDpfrw.jpg]

Judas Priest - British Steel (1980
LP Rip 24-96 FLAC

Tracklist 

DR Peak RMS Duration Track
--------------------------------------------------------------------------------
DR13 -0.70 dB -16.12 dB 2:36 01-Breaking The Law
DR13 -0.70 dB -15.44 dB 4:08 02-Rapid Fire
DR15 -0.83 dB -18.01 dB 4:00 03-Metal Gods
DR13 -0.70 dB -15.50 dB 3:58 04-Grinder
DR14 -1.28 dB -18.67 dB 3:33 05-United
DR14 -0.70 dB -16.72 dB 3:32 06-Living After Midnight
DR14 -0.70 dB -16.79 dB 5:05 07-You Don't Have To Be Old To Be Wise
DR14 -0.70 dB -17.49 dB 4:45 08-The Rage
DR13 -0.76 dB -17.43 dB 4:30 09-Steeler

With This Link You Find The Album and Many Others



This forum account is currently banned. Ban Length: Permanent (N/A).
Ban Reason: Has been banned countless times for spamming music threads.
Reply
#3
Damn the image looks scary, it sets the vibe for the type of tracks.
Reply
#4
(January 18, 2021 at 11:46 PM)Sosolapute Wrote: Damn the image looks scary, it sets the vibe for the type of tracks.

Yes there is more coming You have to search the album with the link below, than you got a lot of LP Rips
kiendly regards
This forum account is currently banned. Ban Length: Permanent (N/A).
Ban Reason: Has been banned countless times for spamming music threads.
Reply

Possibly Related Threads…
Thread Author Replies Views Last Post
Dire Straits - Making Movies (1980) LP Rip 24-96 FLAC muziekdoos 0 107 January 29, 2021 at 05:14 PM
Last Post: muziekdoos
Judas Priest - Screaming For Vengeance (1982) LP Rip 24-96 FLAC muziekdoos 3 167 January 26, 2021 at 05:45 PM
Last Post: HassaMassa
ACDC - Back In Black (1980) LP Rip 24-96 FLAC muziekdoos 2 151 January 22, 2021 at 03:02 PM
Last Post: troubled

 Users browsing this thread: 1 Guest(s)