ACDC - Highway To Hell (1979) LP Rip 24-96 FLAC
by muziekdoos - January 28, 2021 at 03:24 PM
#1
[Image: XZaLDOq.jpg]

ACDC - Highway To Hell (1979) LP Rip 24-96 FLAC

DR Peak RMS Duration Track
--------------------------------------------------------------------------------
DR11 -0.70 dB -14.77 dB 3:27 01-Highway To Hell
DR12 -1.37 dB -15.03 dB 3:22 02-Girls Got Rhythm
DR10 -3.21 dB -16.13 dB 5:07 03-Walk Over You
DR11 -3.77 dB -17.11 dB 4:24 04-Tough Too Much
DR11 -2.91 dB -17.11 dB 3:57 05-Beating Around The Bush
DR11 -0.70 dB -14.64 dB 3:23 06-Shot Down In Flames
DR12 -1.82 dB -15.83 dB 2:33 07-Get It Hot
DR11 -2.71 dB -16.24 dB 4:33 08-If You Want Blood (You've Got It)
DR11 -3.04 dB -16.94 dB 4:16 09-Love Hungry Man
DR11 -4.06 dB -17.53 dB 6:14 10-Night Prowler

Number of tracks: 10
Official DR value: DR11

Samplerate: 96000 Hz
Channels: 2
Bits per sample: 24
Bitrate: 3145 kbps
Codec: FLAC


DOWNLOAD HERE
This forum account is currently banned. Ban Length: Permanent (N/A).
Ban Reason: Has been banned countless times for spamming music threads.
Reply

Possibly Related Threads…
Thread Author Replies Views Last Post
The Who - The Who Sell Out (1967) LP Rip 24-96 FLAC muziekdoos 0 122 February 04, 2021 at 05:54 PM
Last Post: muziekdoos
The Doobie Brothers - The Captain and Me (1973) LP Rip FLAC muziekdoos 0 121 February 04, 2021 at 05:48 PM
Last Post: muziekdoos
The B-52's - The B-52's (1979) LP Rip 24-96 FLAC muziekdoos 0 123 February 04, 2021 at 05:41 PM
Last Post: muziekdoos

 Users browsing this thread: 1 Guest(s)