ACDC - Dirty Deeds Done Dirt Cheap (1976) LP Rip 24-96 FLAC
by muziekdoos - January 22, 2021 at 07:24 PM
#1
[Image: 3DhFIlh.jpg]

ITH THIS LINK YOU WILL FIND MANY MORE LP'S ALL FREE TO DOWNLOAD
ACDC - Dirty Deeds Done Dirt Cheap (1976) LP Rip 24-96 FLAC

Tracklist

DR Peak RMS Duration Track
--------------------------------------------------------------------------------
DR14 -3.18 dB -18.97 dB 4:13 01-Dirty Deeds Done Dirt Cheap
DR13 -0.70 dB -16.10 dB 7:33 02-Ain't No Fun (Waiting 'Round To Be A Millionaire)
DR12 -3.05 dB -17.99 dB 3:24 03-There's Gonna Be Some Rockin'
DR12 -3.10 dB -17.23 dB 5:47 04-Problem Child
DR12 -1.82 dB -17.21 dB 5:17 05-Squealer
DR13 -0.70 dB -17.11 dB 2:40 06-Big Balls
DR12 -1.85 dB -15.11 dB 3:37 07-R.I.P. (Rock In Peace)
DR12 -3.46 dB -20.08 dB 5:51 08-Ride On
DR12 -2.63 dB -17.55 dB 4:45 09-Jailbreak

Number of tracks: 9
Official DR value: DR12

Samplerate: 96000 Hz
Channels: 2
Bits per sample: 24
Bitrate: 2974 kbps
Codec: FLAC


DOWNLOAD ALBUM HERE
This forum account is currently banned. Ban Length: Permanent (N/A).
Ban Reason: Has been banned countless times for spamming music threads.
Reply
#2
Reminder to use another filehost you dumb fuck.
Reply
#3
Really like AC/DC, one of the best
Reply

Possibly Related Threads…
Thread Author Replies Views Last Post
The Who - The Who Sell Out (1967) LP Rip 24-96 FLAC muziekdoos 0 109 February 04, 2021 at 05:54 PM
Last Post: muziekdoos
The Doobie Brothers - The Captain and Me (1973) LP Rip FLAC muziekdoos 0 108 February 04, 2021 at 05:48 PM
Last Post: muziekdoos
The B-52's - The B-52's (1979) LP Rip 24-96 FLAC muziekdoos 0 112 February 04, 2021 at 05:41 PM
Last Post: muziekdoos

 Users browsing this thread: 1 Guest(s)